XXXTENTACION – SKINS – FLAC

XXXTENTACION – SKINS

Summary: A gift to fans, Skins exists primarily for loyal XXXTentacion devotees. Clocking in at less than 20 minutes, this posthumous collection offers ideas, fleeting emotions, and stream-of-conscious freestyles centered around the swirling darkness within the late rapper. There is a handful of worthwhile nuggets on which to focus, including the woozy “Guardian Angel” and the disturbing “Train Food.” “Whoa (Mind in Awe)” comes close to being a fully-realized song — the lightest and most pop-friendly production on Skins — but a pair of ragers featuring Travis Barker steal the show. “Staring at the Sky” starts slow with contemplative emo-acoustic guitar strums before exploding into a metallic burst backed by Barker’s pounding drums. Like every other song on Skins, it’s all-too-brief, but works to great effect. On “One Minute,” Kanye West returns to Yeezus territory, utilizing the track to showcase himself atop jagged guitar and Barker’s crashing cymbals before XXX joins at the end, almost as an afterthought, with some bloody, hardcore punk-indebted screaming. These unconventional genre hybrids point to an unexplored direction that XXX might have veered toward if he hadn’t been killed, but unfortunately this is as far as they go. Skins takes that unrealized potential and cobbles together these tracks — basically B-sides and outtakes — strictly for fans who needed just ten more reasons to hear his voice.

General
Complete name : 01 – Introduction.flac
Format : FLAC
Format/Info : Free Lossless Audio Codec
File size : 1.53 MiB
Duration : 31 s 200 ms
Overall bit rate mode : Variable
Overall bit rate : 412 kb/s
Album : SKINS
Album/Performer : XXXTENTACION
Part : 1
Part/Total : 1
Track name : Introduction
Track name/Position : 01
Performer : XXXTENTACION
Recorded date : 2018
Cover : Yes
Cover type : Cover (front)
Cover MIME : image/jpeg

Audio
Format : FLAC
Format/Info : Free Lossless Audio Codec
Duration : 31 s 200 ms
Bit rate mode : Variable
Bit rate : 391 kb/s
Channel(s) : 2 channels
Channel positions : Front: L R
Sampling rate : 44.1 kHz
Bit depth : 16 bits
Stream size : 1.46 MiB (95%)
Writing library : Mutagen 1.31

General
Complete name : 02 – Guardian angel.flac
Format : FLAC
Format/Info : Free Lossless Audio Codec
File size : 9.83 MiB
Duration : 1 min 48 s
Overall bit rate mode : Variable
Overall bit rate : 764 kb/s
Album : SKINS
Album/Performer : XXXTENTACION
Part : 1
Part/Total : 1
Track name : Guardian angel
Track name/Position : 02
Performer : XXXTENTACION
Recorded date : 2018
Cover : Yes
Cover type : Cover (front)
Cover MIME : image/jpeg

Audio
Format : FLAC
Format/Info : Free Lossless Audio Codec
Duration : 1 min 48 s
Bit rate mode : Variable
Bit rate : 757 kb/s
Channel(s) : 2 channels
Channel positions : Front: L R
Sampling rate : 44.1 kHz
Bit depth : 16 bits
Stream size : 9.75 MiB (99%)
Writing library : Mutagen 1.31

General
Complete name : 03 – Train food.flac
Format : FLAC
Format/Info : Free Lossless Audio Codec
File size : 16.2 MiB
Duration : 2 min 44 s
Overall bit rate mode : Variable
Overall bit rate : 826 kb/s
Album : SKINS
Album/Performer : XXXTENTACION
Part : 1
Part/Total : 1
Track name : Train food
Track name/Position : 03
Performer : XXXTENTACION
Recorded date : 2018
Cover : Yes
Cover type : Cover (front)
Cover MIME : image/jpeg

Audio
Format : FLAC
Format/Info : Free Lossless Audio Codec
Duration : 2 min 44 s
Bit rate mode : Variable
Bit rate : 821 kb/s
Channel(s) : 2 channels
Channel positions : Front: L R
Sampling rate : 44.1 kHz
Bit depth : 16 bits
Stream size : 16.1 MiB (99%)
Writing library : Mutagen 1.31

General
Complete name : 04 – whoa (mind in awe).flac
Format : FLAC
Format/Info : Free Lossless Audio Codec
File size : 13.9 MiB
Duration : 2 min 37 s
Overall bit rate mode : Variable
Overall bit rate : 741 kb/s
Album : SKINS
Album/Performer : XXXTENTACION
Part : 1
Part/Total : 1
Track name : whoa (mind in awe)
Track name/Position : 04
Performer : XXXTENTACION
Recorded date : 2018
Cover : Yes
Cover type : Cover (front)
Cover MIME : image/jpeg

Audio
Format : FLAC
Format/Info : Free Lossless Audio Codec
Duration : 2 min 37 s
Bit rate mode : Variable
Bit rate : 736 kb/s
Channel(s) : 2 channels
Channel positions : Front: L R
Sampling rate : 44.1 kHz
Bit depth : 16 bits
Stream size : 13.8 MiB (99%)
Writing library : Mutagen 1.31

General
Complete name : 05 – BAD!.flac
Format : FLAC
Format/Info : Free Lossless Audio Codec
File size : 9.28 MiB
Duration : 1 min 34 s
Overall bit rate mode : Variable
Overall bit rate : 826 kb/s
Album : SKINS
Album/Performer : XXXTENTACION
Part : 1
Part/Total : 1
Track name : BAD!
Track name/Position : 05
Performer : XXXTENTACION
Recorded date : 2018
Cover : Yes
Cover type : Cover (front)
Cover MIME : image/jpeg

Audio
Format : FLAC
Format/Info : Free Lossless Audio Codec
Duration : 1 min 34 s
Bit rate mode : Variable
Bit rate : 818 kb/s
Channel(s) : 2 channels
Channel positions : Front: L R
Sampling rate : 44.1 kHz
Bit depth : 16 bits
Stream size : 9.19 MiB (99%)
Writing library : Mutagen 1.31

General
Complete name : 06 – STARING AT THE SKY.flac
Format : FLAC
Format/Info : Free Lossless Audio Codec
File size : 8.35 MiB
Duration : 1 min 25 s
Overall bit rate mode : Variable
Overall bit rate : 823 kb/s
Album : SKINS
Album/Performer : XXXTENTACION
Part : 1
Part/Total : 1
Track name : STARING AT THE SKY
Track name/Position : 06
Performer : XXXTENTACION
Recorded date : 2018
Cover : Yes
Cover type : Cover (front)
Cover MIME : image/jpeg

Audio
Format : FLAC
Format/Info : Free Lossless Audio Codec
Duration : 1 min 25 s
Bit rate mode : Variable
Bit rate : 814 kb/s
Channel(s) : 2 channels
Channel positions : Front: L R
Sampling rate : 44.1 kHz
Bit depth : 16 bits
Stream size : 8.26 MiB (99%)
Writing library : Mutagen 1.31

General
Complete name : 07 – One Minute (feat. Kanye West).flac
Format : FLAC
Format/Info : Free Lossless Audio Codec
File size : 21.6 MiB
Duration : 3 min 17 s
Overall bit rate mode : Variable
Overall bit rate : 916 kb/s
Album : SKINS
Album/Performer : XXXTENTACION
Part : 1
Part/Total : 1
Track name : One Minute (feat. Kanye West)
Track name/Position : 07
Performer : XXXTENTACION
Recorded date : 2018
Cover : Yes
Cover type : Cover (front)
Cover MIME : image/jpeg

Audio
Format : FLAC
Format/Info : Free Lossless Audio Codec
Duration : 3 min 17 s
Bit rate mode : Variable
Bit rate : 912 kb/s
Channel(s) : 2 channels
Channel positions : Front: L R
Sampling rate : 44.1 kHz
Bit depth : 16 bits
Stream size : 21.5 MiB (100%)
Writing library : Mutagen 1.31

General
Complete name : 08 – difference (interlude).flac
Format : FLAC
Format/Info : Free Lossless Audio Codec
File size : 3.15 MiB
Duration : 1 min 16 s
Overall bit rate mode : Variable
Overall bit rate : 343 kb/s
Album : SKINS
Album/Performer : XXXTENTACION
Part : 1
Part/Total : 1
Track name : difference (interlude)
Track name/Position : 08
Performer : XXXTENTACION
Recorded date : 2018
Cover : Yes
Cover type : Cover (front)
Cover MIME : image/jpeg

Audio
Format : FLAC
Format/Info : Free Lossless Audio Codec
Duration : 1 min 16 s
Bit rate mode : Variable
Bit rate : 335 kb/s
Channel(s) : 2 channels
Channel positions : Front: L R
Sampling rate : 44.1 kHz
Bit depth : 16 bits
Stream size : 3.07 MiB (97%)
Writing library : Mutagen 1.31

General
Complete name : 09 – I don’t let go.flac
Format : FLAC
Format/Info : Free Lossless Audio Codec
File size : 9.59 MiB
Duration : 2 min 1 s
Overall bit rate mode : Variable
Overall bit rate : 661 kb/s
Album : SKINS
Album/Performer : XXXTENTACION
Part : 1
Part/Total : 1
Track name : I don’t let go
Track name/Position : 09
Performer : XXXTENTACION
Recorded date : 2018
Cover : Yes
Cover type : Cover (front)
Cover MIME : image/jpeg

Audio
Format : FLAC
Format/Info : Free Lossless Audio Codec
Duration : 2 min 1 s
Bit rate mode : Variable
Bit rate : 655 kb/s
Channel(s) : 2 channels
Channel positions : Front: L R
Sampling rate : 44.1 kHz
Bit depth : 16 bits
Stream size : 9.50 MiB (99%)
Writing library : Mutagen 1.31

General
Complete name : 10 – what are you so afraid of.flac
Format : FLAC
Format/Info : Free Lossless Audio Codec
File size : 13.7 MiB
Duration : 2 min 30 s
Overall bit rate mode : Variable
Overall bit rate : 763 kb/s
Album : SKINS
Album/Performer : XXXTENTACION
Part : 1
Part/Total : 1
Track name : what are you so afraid of
Track name/Position : 10
Performer : XXXTENTACION
Recorded date : 2018
Cover : Yes
Cover type : Cover (front)
Cover MIME : image/jpeg

Audio
Format : FLAC
Format/Info : Free Lossless Audio Codec
Duration : 2 min 30 s
Bit rate mode : Variable
Bit rate : 758 kb/s
Channel(s) : 2 channels
Channel positions : Front: L R
Sampling rate : 44.1 kHz
Bit depth : 16 bits
Stream size : 13.6 MiB (99%)
Writing library : Mutagen 1.31

Direct Download Links:
Download from ZIPPYSHARE (Splits) – NO LIMITS

Leave a Reply

Your email address will not be published. Required fields are marked *

Sitemap